发布资源
General #1
Unique ID : 182999798240638438219418248459937946926(0x89AC7AA7ED0BC78E9FBF71E778C09D2E)
Complete name : 7 Emotions 7 Wonders Part 1 (4K 2160p UHDTV HEVC AC3 En) Lotos2007.mkv
Format : Matroska
Format version : Version 4/Version 2
File size : 4.97GiB
Duration : 55mn 19s
Overall bit rate : 12.9 Mbps
Encoded date : UTC 2016-01-08 09:47:42
Writing application : mkvmerge v8.2.0 (World of Adventure) 32bit
Writing library : libebml v1.3.1 + libmatroska v1.4.2
Video #1
ID : 1
Format : HEVC
Format/Info : High Efficiency Video Coding
Format profile :High@L5.1@Main
Codec ID : V_MPEGH/ISO/HEVC
Duration : 55min 19s
Bit rate : 12.4 Mbps
Width : 3840 pixels
Height : 2160 pixels
Display aspect ratio : 16:9
Frame rate mode : Constant
Frame rate : 25.000 fps
Color space : YUV
Chroma subsampling : 4:2:0
Bit depth : 10 bits
Bits/(Pixel*Fram) : 0.060
Stream size : 4.80 GiB (9)
Writing library : x265 1.7:Mac OS X]clang 5.1.0]64 bit] 16bpp
Encoding settings : wpp/ctu=64 / min-cu-size=8 / max-tu-size=32 / tu-inter-depth=1 / me=1 / psy=1 / subme=2 / merange=57 / no-rect / no-amp / max-merge=2 / temporal-mvp / no-early-skip /rdpenalty=0 / no-tskip / no-tskip-fast / strong-intra-smoot
Default : Yes
Forced : No
Audio %7#1
ID : 2
Format : AC-3
Format/Info : Audio Coding 3
Mode extension : CM (complete main)
Format settings, Endianness : Big
Codec ID : A_AC3
Duration : 55min 19s
Bit rate mode : Constant
Bit rate : 448 Kbps
Channel(s) : 2 channels
Channel positions : Front: L R
Sampling rate : 48.0 KHz
Frame rate : 31.250 fps (1536 spf)
Compression mode : Lossy
Stream size : 177 MiB ()
Language : English
Default : Yes
Forced : No
播放器:potplayer
建议使用极速来高速下载!最高峰值12MB

%3

电影:剧情 纪录 

产地:美国 其他 

郑重声明:追影吧所有影视,片源均来自互联网公开渠道搜索,为网友上传交流学习,影视版权均归原电影公司所有,如您认为侵犯了您的权益,请附上版权证明邮件告知,在收到邮件后24小时内删除,邮箱: fangmhu#163.com(替换#为@)